#TITLE:Shockwave speedcore;
#SUBTITLE:;
#ARTIST:The berzerker;
#TITLETRANSLIT:;
#SUBTITLETRANSLIT:;
#ARTISTTRANSLIT:;
#CREDIT:;
#BANNER:Shockwave-banner.jpg;
#BACKGROUND:shockwave-bg.jpg;
#LYRICSPATH:;
#CDTITLE:bpseason2-cdtitle.png;
#MUSIC:The Berzerker - Shockwave (Speedcore).mp3;
#OFFSET:0.000;
#SAMPLESTART:100.000;
#SAMPLELENGTH:12.000;
#SELECTABLE:YES;
#BPMS:0.000=138.840;
#STOPS:;
#BGCHANGES:;
// cache tags:
#FIRSTBEAT:18.500;
#LASTBEAT:529.500;
#SONGFILENAME:Songs/nhac/shockwave speedcore/shockwave (speedcore).sm;
#HASMUSIC:1;
#HASBANNER:1;
#MUSICLENGTH:232.485;
// end cache tags

//---------------dance-single - ----------------
#NOTES:
     dance-single:
     :
     Challenge:
     14:
     1.000,1.000,0.637,0.310,1.000,1894.000,148.000,72.000,0.000,2.000:
0000
0000
0000
0000
,
0000
0000
0000
0000
,
0000
0000
0000
0000
,
0000
0000
0000
0000
,
0000
0000
0000
0000
0000
1001
1001
1001
,
1001
0000
1001
0110
1001
0000
1001
0000
1001
0000
1001
0000
1001
0000
1001
0000
,
1001
0110
1001
0000
1001
0000
1001
0000
1001
0000
1001
0000
1001
0000
1001
0110
,
1001
0000
1001
0000
1001
0000
1001
0000
1001
0000
1001
0000
1001
0000
1001
0110
,
1001
0000
1001
0000
1001
0000
1001
0000
1001
0000
1001
0000
1001
0110
1001
0000
,
1001
0000
1001
0000
1001
0000
1001
0110
1001
0000
1001
0000
1001
0000
1001
0000
,
1001
0110
1001
0000
1001
0000
1001
0000
1001
0000
1001
0110
1001
0000
1001
0000
,
1001
0000
1001
0000
1001
0110
1001
0000
1001
0000
1001
0000
1001
0000
1001
0110
,
1001
0000
1001
0000
1001
0000
1001
0000
1001
0110
1001
0000
1001
0000
1001
0100
,
0010
0001
0010
0100
1000
0100
0010
0001
0010
0100
1000
1100
0000
0000
0000
0000
,
0011
1100
0011
0100
1000
0100
0010
0001
0010
0100
1000
0110
0000
0000
0000
0000
,
0000
0000
0000
0000
0101
1010
0101
0010
0100
1000
0100
0010
0101
0000
0000
0000
,
0000
0000
0000
0000
0101
0010
0100
1000
0100
0010
0001
0010
0101
0000
0000
0000
,
0001
0000
0000
0000
0001
0000
0000
0000
0001
0000
0000
0000
1001
0000
0000
0011
0000
0000
1100
0000
0000
0010
0000
0000
0001
0000
0000
0010
0000
0000
0100
0000
0000
0010
0000
0000
0100
0000
0000
1000
0000
0000
0101
0000
0000
0000
0000
0000
,
0000
0000
0000
0000
0000
0000
1001
0110
1001
0010
0100
1000
0100
0010
0001
1010
,
0000
0000
0000
0000
0000
0000
0011
1100
0110
0001
0010
0100
1000
0100
0010
0001
,
1010
0000
0000
0000
0000
0000
0000
0002
0000
0000
0000
0000
0020
0000
0003
0000
,
0000
0000
0000
0000
0000
0000
0000
0030
0000
2002
0000
0000
0000
0000
0000
0000
,
0000
0000
0000
0000
0000
0000
0000
0000
0000
0000
0000
3113
0000
0000
0000
0000
,
0000
0000
0000
2002
,
0000
0000
0000
0000
0000
0000
0000
0000
0000
0000
0000
3003
0010
0000
0010
0000
,
0010
0000
0010
0000
0010
0000
0010
0000
0010
0000
0010
0000
0010
0010
0010
0010
,
0010
0010
0001
0001
0001
0001
0001
0100
0100
0100
0100
0100
0100
1000
1000
1000
,
1000
1000
1000
0010
0010
0010
0010
0010
0010
0100
0100
0100
0100
0100
0100
1000
,
1000
1000
1000
1000
1000
0100
0100
0100
0100
0100
0010
0010
0010
0010
0010
0100
,
0100
0100
0100
0100
0100
0010
0010
0010
0010
0010
0010
1000
1000
1000
1000
1000
,
1000
1000
1000
0010
0010
0010
0010
0010
0010
0100
0100
0100
0100
0100
0100
0001
,
0001
0001
0001
0001
0001
0001
0010
0010
0010
0010
0010
0010
0100
0100
0100
0100
,
0100
0100
0010
0010
0010
0010
0010
0010
0010
0001
0001
0001
0001
0001
0001
0001
,
0010
0010
0010
0010
0010
0010
0010
0100
0100
0100
0100
0100
0100
1000
1000
1000
,
1000
1000
0100
0010
0001
0010
0100
0010
0001
0010
0100
1000
0100
0010
0100
1000
,
0100
0010
0001
0010
0100
1000
0100
0010
0100
1000
0100
0010
0001
0010
0100
1000
,
0100
0010
0001
0010
0100
0020
0032
0023
0230
2300
3200
0320
0230
2300
3200
0320
,
0032
0023
0032
0023
0230
1300
0100
0010
0001
0010
0001
0010
0100
1000
0100
0010
,
0001
0010
0100
1000
0100
0010
0200
2300
3200
0320
0032
0023
0230
0320
0032
0023
,
0230
2300
3100
0010
0001
0010
0100
0010
0001
0010
0100
1000
0100
0010
0001
0010
,
0100
0010
0001
0010
0100
1000
0100
0010
0200
2300
3200
0320
0032
0023
0032
0023
,
0230
2300
3200
0320
0230
0320
0032
0023
0230
2300
3200
0320
0032
0000
0000
0000
,
0000
0003
0000
0000
0000
0000
0000
0000
0000
0000
0000
0000
1000
0001
0001
0001
,
0001
0001
0000
0000
0001
1000
1000
1000
1000
1000
0000
0000
0001
0010
0010
0010
,
0010
0010
0000
0000
1000
0100
0100
0100
0100
0100
0000
0000
0001
0010
0010
0010
,
0010
0010
0000
0000
0100
1000
1000
1000
1000
1000
0000
0000
0010
1000
1000
1000
,
1000
0000
0000
1000
0000
0000
0000
0000
0000
0000
0000
0000
0010
0000
0000
0001
0000
0000
0001
0000
0000
0001
0000
0000
0001
0000
0000
0001
0000
0000
0000
0000
0001
0000
0000
0000
0001
0000
0000
0000
0001
0000
0000
0000
0000
0000
0000
0000
,
0010
1000
1000
1000
1000
1000
0000
0000
0001
0010
0010
0010
0010
0010
0000
0000
,
0001
0010
0010
0010
0010
0010
0000
0000
0100
0010
0010
0010
0010
0010
0000
0000
,
0001
0010
0010
0010
0010
0010
0000
0000
1000
0100
0100
0100
0100
0100
0000
0000
,
0010
0100
0001
0100
1000
0100
0010
0001
1000
0100
0010
0001
0100
0010
1000
0001
,
1000
0100
0010
0001
0010
0001
0010
0100
1000
0100
0010
0100
1000
0100
0010
0001
,
0010
0100
0010
0001
0010
0100
1000
0100
0010
0100
0010
0100
0010
0001
0010
0001
,
0010
0001
0010
0100
1000
0100
1000
0100
1000
0100
0010
0001
0010
0100
0001
0010
,
0100
1000
0100
0010
0001
0010
0100
1000
0100
0010
0001
0010
0001
0010
0001
0010
,
0100
0010
0100
0010
0100
0010
0100
0000
0001
0000
1000
0000
0001
0000
1000
0000
,
0001
1000
0001
1000
0001
1000
0001
1000
,
0001
0000
0000
0000
1000
0000
0000
0000
0001
0000
1000
0000
0001
0000
1000
0000
0001
0000
1000
0000
0001
0000
1000
0000
0001
0000
1000
0000
0001
1000
0001
1000
,
0001
0000
0000
0000
0000
0000
1000
0000
0000
0000
0000
0000
0001
0000
0000
0000
0000
0000
1000
0000
0000
0000
0000
0000
0001
0000
0000
0000
0000
0000
1000
0000
0000
0000
0000
0000
0001
0000
0000
0000
0000
0000
1000
0000
0000
0000
0000
0000
0001
0000
0000
0000
0000
0000
1000
0000
0000
0000
0000
0000
0001
0000
0000
0000
0000
0000
1000
0000
0000
0000
0000
0000
0001
0000
0000
0000
0000
0000
1000
0000
0000
0000
0000
0000
0001
0000
0000
0000
0000
0000
1000
0000
0000
0000
0000
0000
0001
0000
0000
0000
0000
0000
1000
0000
0000
0000
0000
0000
0001
0000
0000
0000
0000
0000
1000
0000
0000
0000
0000
0000
0001
0000
0000
0000
1000
0000
0000
0000
0001
0000
0000
0000
1000
0000
0000
0000
0001
0000
0000
0000
1000
0000
0000
0000
0001
0000
0000
0000
1000
0000
0000
0000
0001
0000
0000
0000
1000
0000
0000
0000
0001
0000
0000
0000
1000
0000
0000
0000
0001
0000
0000
0000
1000
0000
0000
0000
0001
0000
0000
0000
0000
0000
0000
0000
0000
0000
0000
0000
2002
0000
0000
0000
,
0000
0000
0000
0000
0000
0000
0000
0000
0000
0000
0000
0000
0000
0000
0000
0000
0000
0000
0000
0000
3113
0000
0000
0000
0001
0000
0000
0010
0000
0000
0100
0000
0000
1000
0000
0000
0100
0000
0000
0010
0000
0000
0100
0000
0000
1000
0000
0000
,
0100
0010
0001
0010
0100
0010
0001
0010
0100
1000
0100
0010
0001
0010
0100
0010
,
0001
0100
0010
1000
0001
0100
0010
1000
0100
0010
0001
0010
0001
0010
0001
0010
,
0100
0010
0100
0010
1000
0001
0100
0010
0001
0010
0100
1000
0100
0010
0001
0010
,
0001
0010
0001
0010
0100
0010
0100
0010
0100
1000
0100
0010
0001
0010
0001
0010
,
0100
1000
0100
0010
0001
0010
0100
1000
0100
0010
0100
1000
0100
0010
0001
0010
,
0100
1000
0100
0010
0100
1000
0100
0010
0001
0010
0001
0010
0100
0010
0100
0010
,
0100
1000
0100
0010
0001
0010
0100
0010
0001
0010
0100
1000
0100
0010
0001
0010
,
0001
0010
0100
0010
0100
0010
0100
0010
0100
1000
0100
1000
0100
0010
0001
0010
,
0100
1000
0100
0010
0100
1000
0100
0010
0001
0010
0001
0010
0001
0010
0100
0010
,
0100
0010
0100
0010
0001
0010
0100
1000
0100
0010
0100
1000
0100
0010
0001
0010
,
0001
0010
0100
0010
0100
1000
0100
0010
0001
0100
0001
0010
0100
1000
0100
0010
,
0001
0010
0001
0010
0100
1000
0100
0010
0001
0010
0001
0010
0100
0010
0100
0010
,
0100
1000
0100
0010
0001
0010
0100
0010
0001
0010
0100
1000
0100
0010
0100
1000
,
0100
0010
0001
0010
0001
0010
0100
0010
0100
1000
0100
0010
0001
0010
0100
1000
,
0100
0010
0001
0010
0100
0010
0001
0010
0100
1000
0100
0010
0100
1000
0100
0010
,
0100
0010
0100
0010
0100
0010
0001
0010
0001
0010
0100
1000
0100
0010
0001
0010
,
0001
0010
0100
1000
0100
0010
0001
0010
0001
0010
0100
0010
0100
1000
0100
0010
,
0001
0010
0100
0010
0100
0010
0100
1000
0100
0010
0001
0010
0100
1000
0100
0010
,
0001
0010
0101
0010
0101
1000
0010
0100
0001
1000
0010
0100
0001
0010
0100
1000
,
0100
0011
0100
1010
0100
0010
0001
0010
0100
1000
0100
0010
0100
1010
0101
0010
,
0001
0010
0100
1000
0101
0010
0100
1000
0100
0010
1001
0010
1001
0010
0100
1000
,
0100
0010
0001
0010
0001
0010
0100
0010
0100
0010
0001
0010
0100
1000
0100
0010
,
0001
0010
0100
1010
0100
0011
0100
1001
0100
0010
0001
0010
0100
1000
0100
0010
,
1001
0100
0010
1000
0100
0010
1001
0100
0010
0001
0010
0100
1001
0010
0100
1000
,
0100
0000
0010
0000
0001
0000
0010
0000
0100
0000
1000
0000
0100
0000
0010
0000
0100
0000
1000
0000
0100
0000
0010
0000
0001
0010
0100
1000
0100
0010
0001
0010
,
0100
0010
0001
0010
0100
1000
0100
0010
0001
0010
0001
0010
0100
1000
0100
0010
0100
1000
0100
0010
0001
0010
0100
1000
0100
0010
0100
1000
0100
0010
0001
0010
,
0100
0010
0001
0010
0100
1000
0100
0010
0100
1000
0100
0010
0001
0010
0100
1000
0100
0010
0001
0010
0100
0010
0001
0010
0100
1000
0100
0010
0001
0010
0100
1000
,
0100
0010
0100
1000
0100
0010
0001
0010
0100
1000
0100
0010
0101
0010
0100
0010
0100
0010
0100
0010
0100
0010
0100
0010
0100
0010
0100
0010
1000
0100
0010
0001
,
0010
0100
0010
0001
0010
0100
1000
0100
0010
0001
0100
0010
1000
0001
0100
0010
1000
0001
0100
0010
1000
0100
0010
0001
0010
0100
1000
0100
0010
0001
0010
0100
,
0010
0001
0010
0100
1000
0100
0010
0001
0010
0001
0010
0001
0010
0100
0010
0100
1000
0100
0010
0100
1000
0100
0010
0001
0010
0100
0010
0001
0010
0100
1000
0100
,
0010
0100
2000
3100
0010
0001
0010
0100
0010
0001
0010
0100
1000
0010
0100
0001
1000
0010
0100
0001
1000
0010
0101
0010
0100
1000
0100
0010
0100
1000
0100
0010
,
0001
0010
0100
1000
0100
0010
0001
0100
0010
1000
0001
0100
0010
1000
0001
0100
0010
1000
0001
0100
0010
1000
0100
0010
0001
0010
0001
0010
0100
1000
0100
1000
,
0100
1000
0100
1000
0100
0000
0010
0000
0010
0000
0010
0000
0010
0000
0010
0000
0100
0000
0100
0000
0100
0000
0100
0000
0100
0000
0010
0000
0010
0000
0010
0000
,
0010
0010
0001
0010
0100
1000
0100
0010
0100
1000
0100
0010
0001
0010
0001
0010
,
0100
0010
0100
0010
0100
1000
0100
1000
0100
1000
0100
0010
0001
0010
0001
0010
,
0100
0010
0100
1000
0100
0010
0001
0010
0100
1000
0100
0010
0100
1000
0100
0010
,
0001
0010
0100
0010
0001
0010
0100
1000
0100
0010
1000
0001
0010
0100
1000
0010
,
0100
0001
1000
0010
0100
0001
1000
0010
0100
0001
1000
0010
0100
0001
0010
0100
,
1000
0100
0010
0100
1000
0100
0010
0001
0010
0001
0010
0100
0010
0100
0010
0100
,
0010
0100
1000
0100
1000
0100
1000
0100
0010
0001
0010
0001
0010
0100
0010
0100
,
1000
0100
0010
0001
0010
0100
1000
0100
0010
0001
0010
0001
0010
0100
0010
0100
,
1000
0100
0010
0001
0010
0100
1000
0100
0010
0100
1000
0100
0010
0001
0010
0100
,
0010
0001
0010
0100
1000
0100
0010
0100
1000
0100
1000
0100
1000
0100
0010
0001
,
0010
0001
0010
0001
0010
0100
0010
0100
0010
0100
1000
0100
0010
0001
0010
0100
,
1000
0100
0010
0100
1000
0100
0010
0001
0010
0001
0010
0100
0010
0100
1000
0100
,
0010
0001
0010
0100
1000
0100
0010
0100
1000
0100
0010
0001
0010
0001
0010
0001
,
0010
0100
0010
0100
0010
0100
0010
0001
0010
0100
1000
0100
0010
0100
0010
0100
,
0010
0001
0010
0100
1000
0100
0010
0100
1000
0100
0010
0001
0010
0001
0010
0100
,
0010
0100
1000
0100
0010
0001
0010
0100
1000
0100
0010
0100
1000
0100
0010
0001
,
0010
0100
0010
0001
0010
0100
1000
0100
0010
0100
1000
0100
0010
0001
0010
0100
,
0010
0001
0010
0100
1000
0100
0010
0001
0010
0100
0010
0001
0010
0100
1000
0100
,
0010
0001
0010
0001
0010
0100
0010
0100
0010
0100
1000
0100
1000
0100
1000
0100
,
0010
0001
0010
0100
1000
0100
0010
0100
1000
0010
0100
0001
1000
0010
0100
0001
,
0100
0010
1000
0001
0100
0010
1000
0100
0010
0001
0010
0100
0010
0001
0010
0100
,
1000
0100
0010
0100
1000
0100
0010
0001
0010
0100
0010
0100
0010
0100
0010
0100
,
1000
0100
0010
0001
0010
0100
0010
0001
0010
0100
1000
0100
0010
0001
0010
0100
,
0010
0100
1000
0100
0010
0001
0010
0100
0010
0001
0010
0100
1000
0100
1000
0100
,
1000
0100
0010
0001
0010
0001
0010
0001
0010
0100
0010
0100
1000
0100
0010
0001
,
0010
0100
1000
0100
0010
0100
1000
0100
0010
0001
0010
0100
1000
0100
0010
0001
,
0010
0100
1000
0100
0010
0001
0010
0100
2000
3200
0320
0032
0023
0230
2300
3200
,
0320
0032
0023
0230
1300
0100
0010
0001
0010
0100
0010
0001
0010
0100
1000
0100
,
0010
0100
1000
0100
0010
0001
0010
0100
0010
0001
0010
0100
1000
0010
0100
0001
,
1000
0010
0100
0001
1000
0010
0100
0001
1000
0010
0100
0001
0010
0100
1000
0100
,
0010
0100
1000
0100
0010
0001
0100
0010
1000
0001
0100
0010
1000
0001
0100
0010
,
1000
0010
0100
0001
0100
0001
0100
0001
0100
0010
1000
0010
1000
0010
1000
0010
,
1000
0010
1000
0010
0001
0010
0100
1000
0100
0010
0001
0010
0100
0010
0001
0010
,
0100
1000
0100
0010
0001
0010
0100
0010
0001
0010
0100
1000
0100
0010
0100
1000
,
0100
0010
0100
1000
0100
0010
1001
0000
1001
0000
1001
0000
1001
0000
1001
0000
,
1001
1001
1001
1001
1001
1001
1001
1001
,
1001
1001
0110
0110
0110
0110
0110
0110
,
0110
0110
0110
0022
0000
0000
0000
0000
,
0000
0000
0000
0000
,
0000
0000
0000
0033
0000
0000
0000
0000
;
